Скачать через торрент Белый воротничок White Collar Фильм бесплатно в хорошем качестве torrent

Скачивайте на UnionPeer.org фильмы через торрент без регистрации. Новинки кино в хорошем качестве через торрент. На UnionPeer.org можно скачать через торрент фильмы 2014 и 2015 годов. Самые новые фильмы.

Скачать торрент Белый воротничок White Collar бесплатно через .torrent фильм мультфильм сериал

Статистика раздачи
Размер:  22.38 GB   |    Зарегистрирован:  4 месяца 8 дней   |    .torrent скачан:  150 раз   |   
Раздают:  1  
   
загрузка...
 
Автор Сообщение

Galfimbul

avatar Galfimbul


Белый воротничок / White Collar

Год выпуска: 2011-2012
Страна: США
Жанр: Детектив, криминал, драма, комедия
Продолжительность серии: ~00:43:00

Перевод: Профессиональный (многоголосый закадровый) Fox Life

Режиссёр: Джефф Истен / Jeff Eastin, Трэвис Ромеро / Travis Romero
В ролях: Мэтт Бомер, Тим ДиКей, Уилли Гарсон, Тиффани Тиссен, Шариф Аткинс, Марша Томасон, Хилари Бертон, Дайэнн Кэррол, Джеймс Ребхорн, Натали Моралес

Описание: Нил Кэффри, невероятно обаятельный преступный ум, наконец-то был пойман своим извечным врагом, агентом ФБР Питером Бёрком. Когда Нил бежит из тюрьмы, чтобы найти свою пропавшую любовь, Питер ловит его еще раз. Но Кэффри предлагает ему не торопиться с отправкой в тюрьму, и рассмотреть возможность сотрудничества. Ведь Нил мог бы помочь поймать самых «элитных» преступников, «белых воротничков» преступного мира. Питер, понимая, что интуиция и преступный опыт Нила, которых нет у законопослушного агента, могут стать хорошим подспорьем в борьбе с криминалом, соглашается.

Запись с ТВ: miha2154
Работа со звуком: shaimovserzh

Сэмпл
Предыдущие и альтернативные раздачи

Качество: WEB-DL 720p (KiNGS)
Контейнер: MKV
Видео: MPEG-4 AVC, 1280x720 (16:9), 23.976 fps, ~4000 kbps
Аудио: AC3, 48 kHz, 2 ch, 192 kbps [Russian: Fox Life]
Аудио 2: AC3, 48 kHz, 6 ch, 384 kbps [English]
Субтитры: Отсутствуют
Реклама: Отсутствует
01. Под колпаком / On Guard
02. В поисках завещания / Where There's a Will
03. На пределе / Deadline
04. Детройский стоматолог / Dentist of Detroit
05. Скрытая угроза / Veiled Threat
06. Сухим из воды / Scott Free
07. Изымая средства / Taking Account
08. Посылка из прошлого / As You Were
09. В ожидании бури / On the Fence
10. Обратный отсчёт / Countdown
11. Шах и мат / Checkmate
12. Однажды в Верхнем Вест-Сайде / Upper West Side Story
13. Соседский дозор / Neighborhood Watch
14. Перебирая струны / Pulling Strings
15. Кража из дома / Stealing Home
16. День суда / Judgment Day
GeneralUnique ID : 59511351140123100526689245110485560081 (0x2CC578254D1959238927248296A2AB11)Complete name : W:\White.Collar.S03.720p.WEB-DL.Rus.Eng\White.Collar.S03E01.720p.WEB-DL.Rus.Eng.mkvFormat : MatroskaFormat version : Version 4 / Version 2File size : 1.37 GiBDuration : 42 min 52 sOverall bit rate : 4 580 kb/sEncoded date : UTC 2018-08-02 10:59:50Writing application : mkvmerge v25.0.0 ('Prog Noir') 64-bitWriting library : libebml v1.3.6 + libmatroska v1.4.9

VideoID : 1Format : AVCFormat/Info : Advanced Video CodecFormat profile : [email protected] settings, CABAC : NoFormat settings, ReFrames : 2 framesCodec ID : V_MPEG4/ISO/AVCDuration : 42 min 52 sBit rate : 4 002 kb/sWidth : 1 280 pixelsHeight : 720 pixelsDisplay aspect ratio : 16:9Frame rate mode : ConstantFrame rate : 23.976 (23976/1000) FPSColor space : YUVChroma subsampling : 4:2:0Bit depth : 8 bitsScan type : ProgressiveBits/(Pixel*Frame) : 0.181Stream size : 1.20 GiB (87%)Language : EnglishDefault : YesForced : NoColor range : LimitedColor primaries : BT.709Transfer characteristics : BT.709Matrix coefficients : BT.709

Audio #1ID : 2Format : AC-3Format/Info : Audio Coding 3Format settings, Endianness : BigCodec ID : A_AC3Duration : 42 min 52 sBit rate mode : ConstantBit rate : 192 kb/sChannel(s) : 2 channelsChannel positions : Front: L RSampling rate : 48.0 kHzFrame rate : 31.250 FPS (1536 spf)Bit depth : 16 bitsCompression mode : LossyStream size : 58.9 MiB (4%)Title : Fox LifeLanguage : RussianService kind : Complete MainDefault : YesForced : No

Audio #2ID : 3Format : AC-3Format/Info : Audio Coding 3Format settings, Endianness : BigCodec ID : A_AC3Duration : 42 min 52 sBit rate mode : ConstantBit rate : 384 kb/sChannel(s) : 6 channelsChannel positions : Front: L C R, Side: L R, LFESampling rate : 48.0 kHzFrame rate : 31.250 FPS (1536 spf)Bit depth : 16 bitsCompression mode : LossyStream size : 118 MiB (8%)Language : EnglishService kind : Complete MainDefault : NoForced : No


Трекер:  [ 02-Авг-2018 17:18 ]

  

Скачать .torrent

Размер .torrent файла 225 KB


Размер: 22.38 GB
Хэш (hash) релиза: 965cd766c1c11c759680834e51aaa4e33813ca81
Подписка на обновления:

Еще никто не оставлял запись к записи скачать торрент Белый воротничок White Collar . Будь первым!

!Обратная связь