Скачать через торрент Клан El Clan Фильм бесплатно в хорошем качестве torrent

Скачивайте на UnionPeer.org фильмы через торрент без регистрации. Новинки кино в хорошем качестве через торрент. На UnionPeer.org можно скачать через торрент фильмы 2014 и 2015 годов. Самые новые фильмы.

Скачать торрент Клан El Clan бесплатно через .torrent фильм мультфильм сериал

Статистика раздачи
Размер:  745 MB   |    Зарегистрирован:  1 месяц 1 день   |    .torrent скачан:  45 раз   |   
Раздают:  1  
   
загрузка...
 
Автор Сообщение

Galfimbul

avatar Galfimbul


Клан /El Clan

Год выхода: 2015
Жанр: Триллер, драма, криминал, биография
Режиссер: Пабло Траперо / Pablo Trapero
В ролях: Гильермо Франселья, Питер Ланзани, Лили Попович, Гастон Кокьярале, Жизелль Мотта, Франко Масини, Антония Бенгоэкеа, Стефания Кёсль, Рэймонд Эдвард Ли, Фернандо Миро

О фильме: Начало 80-ых, Аргентина… После семи лет царствования жесточайшей диктатуры, к власти приходит демократия, последовательно отстраняющая от кормушки бывших силовиков как пережиток прошлого. Одним из отстранённых оказывается Архимед Пуччио, бывший сотрудник аргентинских спецслужб, привыкший при старом режиме жить на широкую ногу, и не желающий довольствоваться нынешними особняком в пригороде Буэнос — Айреса и семейным магазинчиком спортивного инвентаря. Поэтому Архимед налаживает побочный семейный бизнес — он похищает людей.



Страна: Аргентина, Испания
Студия: El Deseo S.A., Instituto Nacional de Cine y Artes Audiovisuales (INCAA), K&S Films, Kramer & Sigman Films, Matanza Cine, Televisin Federal (Telefe)
Продолжительность: 01:48:31
Перевод: Дублированный | Line

Файл
Формат: MKV
Качество: HDRip-AVC (исх. BDRip 1080p)
Видео: MPEG-4 AVC, x264, 800x336 (2.40:1) at 23.976 fps, ~862 kbps
Аудио: AAC-HE, 2 ch, 48 kHz, ~96 kbps
Субтитры: нет

Семпл
x264 info: frame I:897 Avg QP:15.84 size: 34511
x264 info: frame P:36236 Avg QP:19.52 size: 9855
x264 info: frame B:118977 Avg QP:21.48 size: 2632
x264 info: consecutive B-frames: 2.2% 3.3% 12.4% 25.3% 16.4% 29.0% 3.8% 1.8% 1.5% 1.5% 0.7%

General
Unique ID : 249156744739159607270957024839229176620 (0xBB71D7F3265066479403DB856F52FB2C)
Complete name : C:UsersDownloadsEl Clan.2015.HDRip-AVC.mkv
Format : Matroska
Format version : Version 4
File size : 745 MiB
Duration : 1 h 48 min
Overall bit rate : 960 kb/s
Movie name : Клан
Deion : Гангстерская драма о правдивой истории становления, разоблачения и падения преступного клана Пуччио, похищавшего и убивавшего людей.
Encoded date : UTC 2018-11-09 06:56:34
Writing application : mkvmerge v28.2.0 ('The Awakening') 64-bit
Writing library : libebml v1.3.6 + libmatroska v1.4.9
Attachments : poster.jpg
ACTORS : Гильермо Франселья, Питер Ланзани, Лили Попович, Гастон Кокьярале, Жизелль Мотта, Франко Масини, Антония Бенгоэкеа, Стефания Кёсль, Рэймонд Эдвард Ли
COUNTRY : Аргентина
DATE : 2015
DIRECTOR : Пабло Траперо
GENRE : драмы, триллеры, криминал, биография
HD_VIDEO : 1
IMDB_RATING : 7.00
ITUNEXTC : ru-movie|18+|400|
KP_RATING : 6.06
Language : und
MEDIA_TYPE : 9
ORIGINAL_TITLE : El Clan
RATING : 6.40

Video
ID : 1
Format : AVC
Format/Info : Advanced Video Codec
Format profile : [email protected]
Format settings : CABAC / 12 Ref Frames
Format settings, CABAC : Yes
Format settings, RefFrames : 12 frames
Codec ID : V_MPEG4/ISO/AVC
Duration : 1 h 48 min
Bit rate : 862 kb/s
Width : 800 pixels
Height : 336 pixels
Display aspect ratio : 2.40:1
Frame rate mode : Constant
Frame rate : 23.976 (24000/1001) FPS
Color space : YUV
Chroma subsampling : 4:2:0
Bit depth : 8 bits
Scan type : Progressive
Bits/(Pixel*Frame) : 0.134
Stream size : 669 MiB (90%)
Title : El Clan
Writing library : x264 core 157 r2901M 7d0ff22
Encoding settings : cabac=1 / ref=12 / deblock=1:-2:-2 / analyse=0x3:0x133 / me=umh / subme=10 / psy=1 / psy_rd=1.08:0.00 / mixed_ref=1 / me_range=32 / chroma_me=1 / trellis=2 / 8x8dct=1 / cqm=0 / deadzone=21,11 / fast_pskip=0 / chroma_qp_offset=-2 / threads=6 / lookahead_threads=1 / sliced_threads=0 / nr=0 / decimate=1 / interlaced=0 / bluray_compat=0 / constrained_intra=0 / bframes=10 / b_pyramid=2 / b_adapt=2 / b_bias=0 / direct=3 / weightb=1 / open_gop=0 / weightp=2 / keyint=240 / keyint_min=23 / scenecut=40 / intra_refresh=0 / rc_lookahead=60 / rc=2pass / mbtree=0 / bitrate=862 / ratetol=1.0 / qcomp=0.60 / qpmin=0 / qpmax=69 / qpstep=4 / cplxblur=20.0 / qblur=0.5 / vbv_maxrate=50000 / vbv_bufsize=62500 / nal_hrd=none / filler=0 / ip_ratio=1.40 / pb_ratio=1.30 / aq=3:0.80
Language : Spanish
Default : Yes
Forced : No

Audio
ID : 2
Format : AAC LC SBR
Format/Info : Advanced Audio Codec Low Complexity with Spectral Band Replication
Commercial name : HE-AAC
Format settings : Implicit
Codec ID : A_AAC-2
Duration : 1 h 48 min
Bit rate : 96.0 kb/s
Channel(s) : 2 channels
Channel layout : L R
Sampling rate : 48.0 kHz
Frame rate : 23.438 FPS (2048 SPF)
Compression mode : Lossy
Delay relative to video : 6 ms
Stream size : 74.5 MiB (10%)
Title : DUB Line
Language : Russian
Default : Yes
Forced : No

Menu
00:00:00.000 : :00:00:00.000
00:08:44.190 : :00:08:44.190
00:17:19.079 : :00:17:19.080
00:28:18.864 : :00:28:18.864
00:35:41.264 : :00:35:41.264
00:42:00.351 : :00:42:00.351
00:48:39.250 : :00:48:39.250
00:56:42.524 : :00:56:42.524
01:05:11.991 : :01:05:11.991
01:14:13.324 : :01:14:13.324
01:19:05.366 : :01:19:05.366
01:26:57.129 : :01:26:57.129
01:38:39.539 : :01:38:39.539
01:42:01.532 : :01:42:01.532
Источник http://BlaTor.org

Трекер:  [ 09-Ноя-2018 17:20 ]

  

Скачать .torrent

Размер .torrent файла 15 KB


Размер: 745 MB
Хэш (hash) релиза: 3afb9f34292f2447207b6d11374da1d6146df6e8
Подписка на обновления:

Еще никто не оставлял запись к записи скачать торрент Клан El Clan . Будь первым!

!Обратная связь